<?xml version="1.0" standalone="no"?>
<!DOCTYPE svg PUBLIC "-//W3C//DTD SVG 1.1//EN" "http://www.w3.org/Graphics/SVG/1.1/DTD/svg11.dtd" >
<svg xmlns="http://www.w3.org/2000/svg">
<metadata>
<json>
<![CDATA[
{
	"fontFamily": "jsps",
	"majorVersion": 2,
	"minorVersion": 0,
	"licenseURL": "https://creativecommons.org/licenses/by-sa/4.0/",
	"license": "CC4.0 BY-SA",
	"designerURL": "https://geoffrey.crofte.fr/en/",
	"designer": "Geoffrey Crofte",
	"copyright": "Geoffrey Crofte",
	"description": "Juiz Social Post Sharer Icon selection\nFont generated by IcoMoon.",
	"fontURL": "https://www.creativejuiz.fr/blog/wordpress/plugin-juiz-social-post-sharer-partage-contenu-reseaux-sociaux",
	"version": "Version 2.0",
	"fontId": "jsps",
	"psName": "jsps",
	"subFamily": "Regular",
	"fullName": "jsps"
}
]]>
</json>
</metadata>
<defs>
<font id="jsps" horiz-adv-x="1024">
<font-face units-per-em="1024" ascent="960" descent="-64" />
<missing-glyph horiz-adv-x="1024" />
<glyph unicode="&#x20;" horiz-adv-x="512" d="" />
<glyph unicode="&#xe900;" glyph-name="bookmark" data-tags="bookmark" horiz-adv-x="993" d="M263.689 835.879c-42.822 0-77.507-34.715-77.507-77.575v-581.815c0-63.805 52.512-116.364 116.26-116.364h465.040c5.136-0.071 10.234 0.878 15 2.796 4.766 1.915 9.101 4.76 12.76 8.369s6.563 7.91 8.543 12.651c1.983 4.745 3.004 9.834 3.004 14.972 0 5.142-1.021 10.231-3.004 14.972-1.98 4.741-4.884 9.042-8.543 12.651s-7.993 6.454-12.76 8.372c-4.766 1.918-9.865 2.867-15 2.793h-465.040c-21.897 0-38.753 16.871-38.753 38.788s16.857 38.788 38.753 38.788h465.040c5.651-0.071 11.245 1.095 16.396 3.416s9.731 5.741 13.424 10.020c3.693 4.282 6.405 9.315 7.947 14.755 1.545 5.44 1.88 11.149 0.987 16.732v536.893c0 21.411-17.361 38.788-38.754 38.788h-116.258v-387.876l-116.261 77.573-116.261-77.573v387.876h-155.012z" />
<glyph unicode="&#xe901;" glyph-name="diigo" data-tags="diigo" horiz-adv-x="993" d="M638.774 383.5v-0.633h0.797c-0.068-21.52-4.080-42.757-11.745-62.498-7.739-19.934-19.012-37.854-33.038-52.814-14.019-14.954-30.5-26.64-48.41-34.552-17.901-7.907-36.973-11.931-56.149-11.931-19.18 0-38.248 4.025-56.152 11.931-17.911 7.913-34.391 19.599-48.41 34.552-14.026 14.96-25.299 32.88-33.038 52.814s-11.754 41.394-11.748 63.131h297.894zM340.88 383.528v-0.028h-95.074c-0.006-33.398 6.154-66.535 18.192-97.544 12.043-31.018 29.772-59.395 52.312-83.434 22.547-24.045 49.481-43.293 79.351-56.488 29.879-13.197 62.023-20.039 94.568-20.039 32.541 0 64.686 6.842 94.565 20.039 29.87 13.194 56.807 32.442 79.351 56.488 22.54 24.039 40.271 52.416 52.314 83.434 12.037 31.009 18.199 64.143 18.19 97.544h-0.801v0.028h0.801c0.003 7.016-0.267 14.019-0.807 20.995l-0.183 415.84h22.782c62.113 0 112.466-50.353 112.466-112.467v-519.794c0-62.113-50.353-112.466-112.466-112.466h-519.853c-62.114 0-112.467 50.353-112.467 112.466v519.794c0 62.114 50.353 112.467 112.467 112.467h401.994l0.102-232.237c-16.474 13.259-34.568 24.331-53.89 32.864-29.879 13.2-62.023 20.039-94.565 20.039-32.545 0-64.689-6.839-94.568-20.039-29.87-13.194-56.804-32.442-79.351-56.488-22.54-24.039-40.269-52.416-52.312-83.434-12.039-31.009-18.198-64.143-18.192-97.541h95.074zM340.88 383.528c-0.006 21.734 4.009 43.194 11.748 63.131 7.739 19.931 19.012 37.854 33.038 52.81 14.019 14.954 30.5 26.64 48.41 34.552 17.904 7.91 36.973 11.931 56.152 11.931 19.177 0 38.248-4.022 56.149-11.931 17.911-7.913 34.391-19.599 48.41-34.552 14.026-14.957 25.299-32.88 33.038-52.81 5.725-14.742 9.411-30.32 10.938-46.226l0.009-16.905h-297.894z" />
<glyph unicode="&#xe902;" glyph-name="evernote" data-tags="evernote" horiz-adv-x="993" d="M367.299 670.119c0-8.027-0.673-21.405-8.738-30.1-8.738-8.028-22.184-8.698-30.248-8.698h-86.038c-24.87 0-39.658 0-49.741-1.337-5.378-0.667-12.099-3.345-15.46-4.682-1.344-0.667-1.344 0-0.672 0.67l196.276 198.666c0.673 0.669 1.344 0.669 0.673-0.669-1.347-3.344-4.034-10.034-4.707-15.385-1.344-10.034-1.344-24.75-1.344-49.5v-88.965zM550.13 69.437c-22.854 14.715-34.953 34.112-39.657 46.154-4.707 11.37-7.395 24.080-7.395 36.79 0 55.519 45.708 101.007 102.17 101.007 16.806 0 30.248-13.38 30.248-30.102 0-11.373-6.051-20.738-15.459-26.087-3.361-2.008-8.068-3.345-11.428-4.012-3.361-0.67-16.133-2.008-22.18-7.36-6.721-5.35-12.099-14.047-12.099-23.412 0-10.032 4.031-19.397 10.755-26.087 12.099-12.040 28.231-18.73 45.708-18.73 45.708 0 82.677 36.793 82.677 82.277 0 40.805-27.561 76.924-63.857 92.979-5.378 2.675-14.116 4.682-22.18 6.69-10.085 2.005-19.493 3.345-20.167 3.345-28.231 3.342-98.81 25.417-103.514 87.626 0 0-20.84-93.649-62.514-119.066-4.034-2.008-9.411-4.012-15.459-5.353-6.051-1.337-12.772-2.005-14.789-2.005-67.888-4.015-139.812 17.389-189.553 68.229 0 0-33.609 27.425-51.085 104.349-4.033 18.73-12.099 52.174-16.804 83.614-2.017 11.373-2.689 20.067-3.361 28.095 0 32.777 20.165 54.849 45.708 58.194 0.672 0 2.688 0 4.033 0 15.46 0 133.090 0 133.090 0 23.527 0 36.97 6.020 45.708 14.047 11.428 10.702 14.116 26.087 14.116 44.149 0 0 0 121.742 0 137.127 0 0.669 0 3.344 0 4.013 3.364 24.75 25.544 45.486 58.48 45.486 0 0 10.085 0 16.133 0 6.721 0 14.789-0.669 22.184-1.338 5.378-0.669 10.082-2.007 18.147-4.013 41.003-10.034 49.742-51.506 49.742-51.506s77.3-13.378 116.286-20.068c36.97-6.689 128.388-12.709 145.864-104.35 41-218.066 16.13-429.441 14.116-429.441-28.905-206.026-200.98-195.99-200.98-195.99-36.973 0-64.531 12.040-82.68 24.75zM704.732 507.572c-22.184 2.008-41.003-6.687-47.725-23.412-1.344-3.342-2.69-7.357-2.017-9.365 0.673-2.005 2.017-2.675 3.361-3.342 8.065-4.015 21.51-6.020 41.003-8.028s32.936-3.345 41.674-2.008c1.344 0 2.69 0.67 4.034 2.675 1.344 2.008 0.673 6.020 0.673 9.365-2.69 18.73-18.823 31.44-41.003 34.115z" />
<glyph unicode="&#xe903;" glyph-name="facebook" data-tags="facebook" horiz-adv-x="993" d="M893.673 445.573c0 220.701-177.828 399.615-397.188 399.615s-397.188-178.914-397.188-399.615c0-199.46 145.246-364.783 335.127-394.761v279.248h-100.848v115.513h100.848v88.039c0 100.153 59.296 155.476 150.022 155.476 43.458 0 88.911-7.805 88.911-7.805v-98.342h-50.086c-49.338 0-64.726-30.804-64.726-62.408v-74.96h110.158l-17.61-115.513h-92.548v-279.248c189.881 29.978 335.127 195.302 335.127 394.761z" />
<glyph unicode="&#xe904;" glyph-name="linkedin" data-tags="linkedin" horiz-adv-x="993" d="M758.663 185.806h-110.344v172.811c0 41.208-0.735 94.258-57.391 94.258-57.471 0-66.265-44.901-66.265-91.257v-175.799h-110.347v355.368h105.931v-48.566h1.483c10.603 18.128 25.923 33.038 44.327 43.148s39.207 15.037 60.193 14.258c111.839 0 132.459-73.567 132.459-169.27l-0.047-194.951zM289.812 589.765c-12.665-0.003-25.046 3.748-35.578 10.783s-18.74 17.036-23.589 28.737c-4.849 11.698-6.119 24.575-3.651 36.997s8.566 23.834 17.519 32.791c8.954 8.957 20.363 15.058 32.784 17.532s25.296 1.207 36.997-3.638c11.702-4.844 21.706-13.050 28.743-23.58s10.795-22.91 10.799-35.575c0-8.41-1.654-16.735-4.872-24.505-3.215-7.77-7.931-14.832-13.877-20.778-5.945-5.949-13.002-10.668-20.772-13.886-7.768-3.221-16.095-4.878-24.504-4.878zM344.982 185.806h-110.459v355.381h110.459v-355.381zM813.677 820.313h-634.601c-14.404 0.163-28.283-5.4-38.588-15.466s-16.191-23.81-16.367-38.214v-637.255c0.17-14.41 6.053-28.166 16.357-38.242s24.187-15.649 38.598-15.497h634.601c14.438-0.18 28.359 5.378 38.704 15.453s16.269 23.847 16.468 38.285v637.301c-0.205 14.433-6.132 28.193-16.477 38.259s-24.263 15.612-38.695 15.422z" />
<glyph unicode="&#xe905;" glyph-name="email" data-tags="mail" horiz-adv-x="993" d="M198.594 742.788c-24.799 0-46.666-12.052-60.145-30.587-9.086-12.455-5.072-30.109 8.073-38.216l326.982-201.66c14.075-8.695 31.887-8.695 45.962 0l325.601 203.388c13.666 8.549 17.073 27.129 6.982 39.583-13.591 16.729-34.326 27.493-57.673 27.493h-595.782zM850.814 592.226c-3.115-0.031-6.277-0.881-9.238-2.734l-322.11-201.011c-14.075-8.661-31.887-8.623-45.962 0.071l-322.183 198.637c-11.841 7.295-27.2-1.151-27.2-14.969v-345.311c0-40.718 33.327-73.697 74.473-73.697h595.782c41.146 0 74.473 32.979 74.473 73.697v347.685c0 10.392-8.695 17.734-18.035 17.631z" />
<glyph unicode="&#xe906;" glyph-name="mix" data-tags="mix" d="M121.92 414.096v-273.648c0-42.227 34.954-76.448 78.074-76.448s78.074 34.221 78.074 76.448v418.294c-4.489-80.627-72.674-144.646-156.147-144.646zM816.074 832c-170.314 0-227.014-134.84-227.014-301.152v-93.754c0 42.224 35.053 76.448 78.285 76.448 43.219 0 78.269-34.224 78.269-76.448v-38.906c0-42.211 35.053-76.432 78.285-76.432 43.219 0 78.269 34.221 78.269 76.448v347.62c0 47.977-38.115 86.175-86.093 86.175v0zM121.92 411.754c83.36 0 151.463 64.099 155.936 144.842v71.811c0 1.968 0.114 3.904 0.26 5.856 3.042 39.525 36.662 70.689 77.715 70.689 43.072 0 77.978-34.271 77.978-76.545v-299.494c0-42.272 34.906-76.528 77.974-76.528 43.056 0 77.962 34.256 77.978 76.512v201.498c0 166.572 56.65 301.606 226.314 301.606h-598.154c-53.020 0-96-42.981-96-96v-324.246z" />
<glyph unicode="&#xe907;" glyph-name="pinterest" data-tags="pinterest" horiz-adv-x="993" d="M496.811 845.188c-219.532 0-397.513-177.689-397.513-396.862 0-168.215 104.695-311.935 252.577-369.751-3.6 31.359-6.544 79.698 1.309 113.996 7.196 31.030 46.459 197.288 46.459 197.288s-11.779 23.844-11.779 58.793c0 55.203 32.064 96.358 71.978 96.358 34.025 0 50.384-25.476 50.384-55.855 0-33.969-21.594-84.924-33.044-132.288-9.489-39.52 19.959-71.857 58.892-71.857 70.668 0 124.978 74.473 124.978 181.608 0 95.049-68.378 161.358-166.201 161.358-113.202 0-179.619-84.598-179.619-172.138 0-33.969 13.089-70.554 29.445-90.478 3.274-3.919 3.6-7.512 2.619-11.432-2.945-12.412-9.815-39.523-11.124-45.075-1.635-7.187-5.89-8.819-13.414-5.226-49.73 23.189-80.811 95.375-80.811 153.845 0 125.099 90.955 240.075 262.72 240.075 137.737 0 245.053-97.99 245.053-229.298 0-136.859-86.376-246.936-206.119-246.936-40.243 0-78.196 20.905-90.956 45.729 0 0-19.956-75.779-24.865-94.397-8.834-34.624-33.044-77.74-49.403-104.197 37.298-11.432 76.558-17.638 117.782-17.638 219.533 0 397.517 177.689 397.517 396.862 0.652 219.824-177.329 397.513-396.862 397.513z" />
<glyph unicode="&#xe908;" glyph-name="pocket" data-tags="pocket" horiz-adv-x="993" d="M124.121 497.164v222.165c0 38.523 31.516 70.004 70.004 70.004h604.753c38.49 0 69.97-31.482 69.97-70.004v-222.571c0-205.647-166.717-372.364-372.364-372.364s-372.364 166.717-372.364 372.364v0.406zM497 450.138l-140.496 135.081c-20.216 19.437-52.359 18.804-71.795-1.409-19.436-20.216-18.805-52.361 1.41-71.795l175.686-168.92c19.658-18.897 50.731-18.897 70.386 0l175.687 168.92c20.216 19.434 20.849 51.579 1.412 71.795-19.437 20.213-51.582 20.846-71.795 1.409l-140.496-135.081z" />
<glyph unicode="&#xe909;" glyph-name="print" data-tags="print" d="M333.846 832c-48.577 0-88.616-40.038-88.616-88.615v-147.692h-28.615c-48.923 0-88.615-39.693-88.615-88.614v-177.232c0-48.925 39.692-88.614 88.615-88.614h28.615v-88.618c0-48.576 40.038-88.614 88.616-88.614h354.461c48.576 0 88.614 40.038 88.614 88.614v88.618h30.464c48.922 0 88.614 39.69 88.614 88.614v177.232c0 48.922-39.693 88.614-88.614 88.614h-30.464v147.692c0 48.577-40.038 88.615-88.614 88.615h-354.461zM333.846 772.923h354.461c16.614 0 29.539-12.923 29.539-29.539v-147.692h-413.539v147.692c0 16.615 12.923 29.539 29.539 29.539zM763.078 536.614c24.461 0 44.307-19.846 44.307-44.307s-19.846-44.307-44.307-44.307c-24.464 0-44.31 19.846-44.31 44.307s19.846 44.307 44.31 44.307zM304.308 388.922h413.539v-236.307c0-16.614-12.925-29.536-29.539-29.536h-354.461c-16.616 0-29.539 12.922-29.539 29.536v236.307zM364.307 329.846v-59.078h295.386v59.078h-295.386zM364.307 241.232v-59.078h206.771v59.078h-206.771z" />
<glyph unicode="&#xe90a;" glyph-name="reddit" data-tags="reddit" d="M418.378 447.997c-23.405 0-42.422-19.018-42.422-42.422s19.018-42.422 42.422-42.422c23.405 0 42.422 19.018 42.422 42.422s-19.018 42.422-42.422 42.422zM512 261.482c16.822 0 72.413 2.195 101.667 31.453 4.39 4.387 4.39 10.97-1.462 15.36-4.387 4.387-10.97 4.387-15.36 0-18.285-18.288-57.782-24.87-85.578-24.87-27.792 0-67.29 6.582-85.574 24.87-4.39 4.387-10.973 4.387-15.36 0-4.39-4.39-4.39-10.973 0-15.36 29.254-29.258 85.574-31.453 101.667-31.453zM563.933 405.574c0-23.405 19.014-42.422 42.422-42.422 23.405 0 42.422 19.018 42.422 42.422s-19.018 42.422-42.422 42.422c-23.408 0-42.422-19.018-42.422-42.422zM921.6 447.997c0 226.218-183.386 409.603-409.6 409.603-226.216 0-409.6-183.385-409.6-409.603s183.384-409.603 409.6-409.603c226.214 0 409.6 183.386 409.6 409.603zM725.578 507.974c32.915 0 59.978-27.062 59.978-59.978 0-24.138-14.63-45.347-37.302-54.858 0.074-0.666 0.147-1.325 0.221-1.974 0.65-5.792 1.242-11.050 1.242-16.31 0-92.16-106.79-166.768-239.178-166.768-132.39 0-239.178 74.608-239.178 166.768 0 6.582 0.731 12.432 1.463 18.285-20.48 8.778-35.108 29.99-35.108 54.128 0 32.912 27.063 59.978 59.977 59.978 16.092 0 30.722-6.586 41.691-16.826 41.693 29.99 98.742 49.008 162.378 50.47l30.72 142.629c0 2.925 2.195 5.12 4.387 6.583 2.195 1.463 5.12 2.194 8.048 1.463l99.472-21.212c6.586 14.628 21.213 24.137 38.035 24.137 23.405 0 42.422-19.017 42.422-42.423 0-23.404-19.018-42.422-42.422-42.422-22.675 0-41.69 18.285-42.422 40.959l-89.235 19.017-27.062-128.002c62.902-2.192 119.222-21.21 160.182-50.467 10.973 10.24 25.6 16.822 41.693 16.822z" />
<glyph unicode="&#xe90b;" glyph-name="share" data-tags="share" d="M736 874.667c-70.186 0-128-57.813-128-128 0-8.147 0.931-16.091 2.416-23.833l-304.416-177.582c-22.329 18.893-50.765 30.749-82 30.749-70.187 0-128-57.811-128-128 0-70.186 57.813-128 128-128 31.235 0 59.671 11.856 82 30.749l304.416-177.498c-1.498-7.77-2.416-15.741-2.416-23.917 0-70.189 57.814-128 128-128s128 57.811 128 128c0 70.186-57.814 128-128 128-31.254 0-59.664-11.92-82-30.835l-304.416 177.667c1.485 7.744 2.416 15.686 2.416 23.834s-0.931 16.090-2.416 23.834l304.416 177.583c22.33-18.895 50.765-30.751 82-30.751 70.186 0 128 57.814 128 128.001s-57.814 128-128 128zM736 789.334c24.070 0 42.666-18.597 42.666-42.667s-18.595-42.667-42.666-42.667c-24.070 0-42.666 18.597-42.666 42.667s18.595 42.667 42.666 42.667zM224 490.666c24.069 0 42.667-18.595 42.667-42.666s-18.597-42.666-42.667-42.666c-24.069 0-42.667 18.595-42.667 42.666s18.597 42.666 42.667 42.666zM736 192c24.070 0 42.666-18.598 42.666-42.666 0-24.070-18.595-42.669-42.666-42.669s-42.666 18.598-42.666 42.669c0 24.067 18.595 42.666 42.666 42.666z" />
<glyph unicode="&#xe90c;" glyph-name="tumblr" data-tags="tumblr" d="M102.4 448.522c0 225.699 183.784 409.078 410.381 409.078 225.555 0 409.341-182.335 408.819-409.078 0-225.696-183.264-410.122-408.819-410.122-227.119 0-410.381 184.426-410.381 410.122zM592.666 306.416c-29.238 0-48.035 12.538-48.035 49.632v123.299h86.672v88.816h-86.672v121.73h-74.662c-3.654-53.289-33.936-114.94-105.466-133.746v-76.8h65.264v-141.584c0-88.294 53.779-125.389 125.309-125.389h79.882v94.042h-42.291z" />
<glyph unicode="&#xe90d;" glyph-name="twitter" data-tags="twitter" horiz-adv-x="993" d="M352.566 132.614c292.74 0 452.856 242.533 452.856 452.856 0 6.889 0 13.746-0.465 20.573 31.148 22.531 58.039 50.428 79.407 82.385-29.047-12.871-59.864-21.312-91.415-25.041 33.224 19.891 58.092 51.176 69.973 88.033-31.241-18.539-65.424-31.605-101.066-38.633-23.996 25.517-55.734 42.413-90.301 48.075s-70.038-0.227-100.923-16.755c-30.881-16.528-55.457-42.774-69.921-74.676s-18.010-67.682-10.091-101.803c-63.277 3.171-125.182 19.617-181.694 48.265s-106.366 68.861-146.328 118.027c-20.353-35.038-26.587-76.516-17.432-115.988 9.155-39.474 33.010-73.973 66.708-96.476-25.329 0.751-50.105 7.584-72.239 19.921 0-0.652 0-1.334 0-2.017 0.010-36.746 12.73-72.36 36.004-100.796s55.667-47.948 91.686-55.225c-23.432-6.389-48.017-7.323-71.866-2.731 10.17-31.626 29.971-59.28 56.632-79.099s58.85-30.807 92.065-31.431c-56.359-44.293-125.981-68.338-197.663-68.267-12.663 0.025-25.315 0.791-37.888 2.296 72.786-46.71 157.476-71.485 243.96-71.37z" />
<glyph unicode="&#xe90e;" glyph-name="viadeo" data-tags="viadeo" d="M730.39 503.411c-0.544 1.37-1.29 2.653-1.965 4.006-7.661-3.936-14.886-7.978-22.406-11.408-7.312-3.354-14.826-6.352-22.432-8.989-7.747-2.678-15.718-4.73-23.533-7.021 0.061-0.707 0.016-1.149 0.138-1.552 0.32-1.034 0.669-2.067 1.075-3.069 10.918-27.392 15.734-55.942 16.090-85.274 0.294-24.454-2.886-48.525-10.102-71.952-10.858-35.229-28.368-66.784-54.179-93.325-37.715-38.742-84.096-59.597-137.91-64.454-4.973-0.458-9.981-0.397-15.395-0.589 0.24 1.216 0.208 1.485 0.326 1.571 2.79 2.083 5.606 4.125 8.387 6.23 56.259 42.48 100.56 94.874 131.872 157.882 26.038 52.374 39.267 107.93 40.586 166.326 0.634 28.541-1.882 56.848-6.845 84.912-5.632 31.926-14.477 63.018-25.862 93.385-0.355 0.939-1.43 3.223-2.186 4.576-0.685 5.024-0.899 6.54-1.056 7.48 0 0.87-0.051 2.447-0.086 2.775-2.806 26.377-7.616 52.366-14.902 77.881-9.904 34.65-23.949 67.472-43.626 97.787-13.558 20.888-29.2 40.044-48.262 56.278-1.792 1.516-3.69 2.947-5.942 4.731-0.070-1.18-0.339-1.887-0.096-2.335 1.344-2.482 2.81-4.894 4.23-7.342 33.133-56.735 62.227-115.46 87.085-176.237 6.829-16.665 13.056-33.572 19.571-50.367l1.926-3.516c0.163-0.991 0.397-2.723 1.046-7.471 0.346-8.859 0.832-17.958 0.998-25.817 0.944-46.067-0.278-92.048-5.008-137.916-2.176-21.181-4.89-42.275-8.493-63.222-4.515-26.336-10.31-52.394-17.866-78.038-9.296-31.53-20.966-62.112-36.736-91.056-14.029-25.731-30.864-49.411-52.074-69.834-19.504-18.784-41.658-33.571-66.758-43.949-2.678-1.11-5.216-1.43-8.198-0.851-34.266 6.653-65.114 20.688-92.553 42.122-23.714 18.509-42.1 41.462-56.449 67.722-15.31 28.022-24.477 57.949-27.648 89.635-1.863 18.646-1.456 37.277 0.788 55.907 2.755 22.8 8.56 44.73 17.944 65.706 13.976 31.254 34.424 57.776 59.94 80.534 19.695 17.562 41.701 31.408 66.508 40.742 16.003 6.013 32.509 9.814 49.501 11.814 15.030 1.757 30.099 1.834 45.123 0.662 19.219-1.501 37.949-5.635 55.981-12.608 1.558-0.602 3.206-0.989 5.501-1.696 1.587 12.502 4.054 24.342 7.763 35.907 3.718 11.564 8.717 22.628 13.891 33.633-2.826 2.214-5.901 2.706-8.752 3.619-24.435 7.816-49.501 12.072-75.13 13.512-27.405 1.551-54.534-0.284-81.427-5.601-32.214-6.368-62.288-18.182-90.145-35.52-26.513-16.51-49.413-37.115-69.644-60.75-44.882-52.435-68.821-113.168-72.512-181.821-1.057-19.744-0.39-39.485 2.123-59.158 3.535-27.754 10.596-54.512 21.765-80.182 18.048-41.482 44.379-77.114 77.746-107.626 24.694-22.586 52.818-39.821 84.156-51.722 29.2-11.107 59.568-16.88 90.691-18.406 28.88-1.405 57.584 0.208 85.987 6.154 38.355 8.013 73.446 23.248 104.986 46.474 24.605 18.122 45.469 39.904 63.693 64.256 36.189 48.368 55.789 102.784 59.229 162.915 1.405 24.576 0.234 49.056-3.821 73.376-3.501 20.637-8.813 40.749-16.646 60.163zM871.568 828.406c-6.333 23.37-15.238 45.697-27.44 66.67-1.741 2.982-3.674 5.86-5.898 9.393-1.674-3.033-3.059-5.429-4.352-7.867-8.429-15.856-18.947-30.186-31.926-42.663-19.686-18.897-42.387-32.59-69.142-39.113-2.33-0.569-4.653-1.198-6.957-1.87-19.731-5.748-38.81-13.063-56.666-23.361-12.234-7.066-22.736-16.019-31.402-27.187-16.115-20.759-23.904-44.18-22.742-70.376 0.954-21.396 7.104-41.396 17.501-60.121 0.512-0.915 1.248-1.699 2.298-3.094 84.65 20.638 148.246 68.799 192.211 144.983-0.166-2.568-0.086-3.809-0.349-4.98-1.462-6.601-3.795-12.9-6.784-18.966-6.602-13.365-15.482-25.153-25.395-36.218-17.19-19.216-36.736-35.882-57.261-51.436-24.861-18.837-50.912-35.898-77.936-51.489-1.987-1.146-4.352-1.885-5.85-4.384 3.664-3.267 7.139-6.541 10.803-9.6 13.837-11.539 28.941-20.89 46.192-26.55 16.262-5.325 32.81-6.781 49.725-3.843 20.534 3.552 38.41 12.582 54.090 26.051 15.216 13.046 27.19 28.746 37.283 45.904 5.85 9.925 11.29 20.102 15.050 31.029 7.843 22.715 12.426 46.127 13.898 70.048 1.872 30.125-1.046 59.854-8.95 89.041z" />
<glyph unicode="&#xe90f;" glyph-name="vkontakte" data-tags="VK" d="M629.882 832h-235.763c-215.171 0-266.118-50.947-266.118-266.118v-235.763c0-215.171 50.947-266.118 266.118-266.118h235.763c215.171 0 266.118 50.947 266.118 266.118v235.763c0 215.171-51.488 266.118-266.118 266.118zM748.035 284.048h-55.824c-21.136 0-27.642 16.8-65.581 55.283-33.062 31.978-47.696 36.314-55.824 36.314-11.382 0-14.634-3.251-14.634-18.97v-50.406c0-13.549-4.336-21.68-40.109-21.68-59.075 0-124.656 35.773-170.726 102.438-69.374 97.558-88.344 170.726-88.344 185.901 0 8.131 3.252 15.718 18.97 15.718h55.826c14.093 0 19.51-6.502 24.931-21.68 27.642-79.674 73.712-149.59 92.682-149.59 7.043 0 10.298 3.254 10.298 21.139v82.384c-2.17 37.939-22.224 41.19-22.224 54.739 0 6.506 5.421 13.008 14.093 13.008h87.802c11.923 0 16.259-6.502 16.259-20.595v-111.107c0-11.926 5.421-16.262 8.672-16.262 7.046 0 13.008 4.336 26.016 17.344 40.109 44.986 68.832 114.362 68.832 114.362 3.795 8.128 10.301 15.718 24.39 15.718h55.827c16.8 0 20.595-8.672 16.8-20.598-7.046-32.518-75.338-128.992-75.338-128.992-5.962-9.757-8.128-14.093 0-24.931 5.962-8.131 25.475-24.931 38.483-40.109 23.846-27.098 42.275-49.862 47.152-65.581 5.421-15.715-2.71-23.846-18.429-23.846z" />
<glyph unicode="&#xe910;" glyph-name="weibo" data-tags="weibo" d="M692.87 816c-14.061 0-27.626-1.433-40.698-3.796-9.821-1.719-16.39-11.245-14.694-21.201 1.696-10.028 11.091-16.689 20.912-14.97 11.446 2.077 22.893 3.295 34.48 3.295 110.077 0 198.957-90.105 198.957-201.696 0-24.138-4.381-47.203-12.154-68.832-2.403-6.234-1.341-13.251 2.826-18.41 4.24-5.155 10.81-7.59 17.312-6.374 6.499 1.219 11.798 5.946 13.846 12.25 9.114 25.354 14.342 52.643 14.342 81.366 0 131.431-105.485 238.368-235.13 238.368zM692.87 705.983c-7.702 0-14.979-0.788-21.904-2.005-9.821-1.791-16.461-11.245-14.694-21.273 1.696-9.956 11.091-16.617 20.912-14.898 5.299 0.931 10.528 1.504 15.686 1.504 50.163 0 90.435-40.825 90.435-91.679 0-10.96-1.981-21.418-5.584-31.302-3.389-9.526 1.485-20.054 10.883-23.491 9.395-3.44 19.782 1.43 23.171 10.957 4.877 13.61 7.702 28.365 7.702 43.837 0 70.693-56.874 128.351-126.608 128.351zM442.832 698.534c-58.077 1.146-145.685-45.339-223.756-122.979-77.647-78.717-123.076-161.229-123.076-232.282 0-138.096 174.157-220.608 346.406-220.608 223.331 0 372.832 130.432 372.832 234.074 0 63.315-52.989 97.91-100.326 113.238-11.302 3.869-18.864 5.731-13.21 21.13 3.744 9.168 9.254 26.646 9.254 49.853 0 26.358-18.086 49.206-54.262 53.286-17.946 2.006-90.432 1.722-138.547-18.691 0 0-26.566-11.603-19.005 9.523 13.28 42.189 11.373 76.784-9.469 95.98-11.306 11.532-27.411 17.118-46.842 17.476zM427.216 487.168c141.165 0 255.549-72.986 255.549-163.091 0-90.032-114.384-163.018-255.549-163.018-141.091 0-255.477 72.986-255.477 163.018 0 90.106 114.386 163.091 255.477 163.091zM408.282 448.848c-54.614-0.429-107.673-30.726-130.706-77.427-28.402-59.376-1.908-124.627 66.2-145.686 68.109-22.992 149.43 11.533 177.834 74.778 28.33 61.312-7.562 126.49-75.67 143.68-12.435 3.296-25.082 4.73-37.658 4.656zM436.474 371.35c10.454 0 18.934-8.525 18.934-19.123 0-10.602-8.48-19.197-18.934-19.197-10.458 0-18.934 8.595-18.934 19.197 0 10.598 8.477 19.123 18.934 19.123zM356.778 352.227c5.933-0.074 11.869-1.005 17.45-2.938 24.234-7.808 31.654-31.085 16.746-50.496-12.998-19.411-42.746-29.082-65.142-19.411-22.254 9.67-27.836 33.021-14.836 50.426 9.751 14.611 27.908 22.634 45.783 22.419z" />
<glyph unicode="&#xe911;" glyph-name="whatsapp" data-tags="whatsapp" d="M769.418 704.649c-33.491 33.777-73.338 60.557-117.235 78.791-43.894 18.234-90.966 27.557-138.486 27.43-199.281 0-361.464-162.475-361.534-362.188-0.085-63.558 16.561-126.016 48.26-181.075l-51.293-187.709 191.652 50.365c53.002-28.934 112.4-44.096 172.758-44.096h0.157c199.245 0 361.446 162.493 361.517 362.205 0.15 47.603-9.12 94.765-27.28 138.755s-44.845 83.934-78.515 117.522zM513.696 147.424h-0.122c-53.814-0.029-106.65 14.448-152.963 41.907l-10.973 6.512-113.715-29.888 30.37 111.152-7.159 11.392c-30.055 47.99-45.956 103.514-45.868 160.166 0 165.949 134.794 301.035 300.55 301.035 39.466-0.023 78.541-7.834 114.995-22.987s69.571-37.351 97.462-65.327c27.891-27.975 50.010-61.182 65.091-97.723s22.832-75.699 22.81-115.242c-0.070-166-134.864-300.998-300.48-300.998zM678.515 372.909c-9.034 4.531-53.443 26.416-61.731 29.523-8.285 3.11-14.301 4.534-20.314-4.531-6.016-9.066-23.334-29.44-28.605-35.482-5.267-6.045-10.538-6.794-19.571-2.259-9.030 4.531-38.134 14.086-72.65 44.912-26.851 24.003-45.069 53.632-50.269 62.698s-0.557 13.894 3.968 18.48c4.058 4.048 9.034 10.56 13.539 15.856 4.506 5.299 6.032 9.050 9.030 15.094 2.998 6.042 1.51 11.322-0.746 15.856-2.253 4.531-20.333 49.082-27.856 67.197-7.331 17.645-14.768 15.264-20.317 15.629-5.2 0.262-11.302 0.314-17.334 0.314-4.579-0.122-9.082-1.187-13.229-3.136s-7.846-4.736-10.867-8.189c-8.269-9.066-31.6-30.947-31.6-75.498 0-44.547 32.365-87.584 36.87-93.629 4.509-6.045 63.706-97.45 154.278-136.666 16.822-7.267 34.013-13.645 51.504-19.104 21.632-6.947 41.325-5.923 56.893-3.597 17.334 2.605 53.443 21.901 60.982 43.037s7.523 39.27 5.2 43.037c-2.323 3.77-8.147 5.853-17.178 10.387v0.070z" />
<glyph unicode="&#xe912;" glyph-name="buffer" data-tags="buffer" d="M128 662.434l354.707 163.159c20.461 9.36 39.549 8.040 59.997-1.2l334.112-153.942c8.198-4.008 17.744-6.684 17.744-16.045 0-12.036-10.915-13.369-19.091-17.401l-320.611-147.091c-30.006-13.366-55.923-13.366-85.907 0l-340.95 155.132v17.389zM128 246.522l62.728 30.755c25.906 13.37 50.454 10.707 76.36-1.2l205.914-94.947c25.907-12.035 50.454-12.035 76.362 0l208.643 96.291c25.904 12.038 50.454 12.038 76.358 0 15.005-8.038 31.363-14.71 46.502-21.395 6.816-4.010 16.362-6.685 15.002-16.045 0-8.042-8.198-12.035-15.002-14.714l-155.45-72.339-175.933-80.221c-23.178-10.707-46.502-12.038-69.546-1.2l-329.986 150.941c-6.816 2.675-12.274 8.042-19.090 12.035-2.729 2.678-2.729 6.685-2.729 12.038h-0.135zM128 453.805l47.725 22.73c36.712 21.398 70.915 17.402 109.094-1.2 64.099-32.102 129.555-58.838 193.642-89.597 24.547-10.704 46.499-10.704 69.542 0l205.917 94.95c28.634 13.366 55.923 14.71 84.435 0 15.002-8.042 32.733-14.714 47.725-22.73 13.632-8.042 12.275-16.045 0-24.074-4.086-2.675-8.198-4.010-12.275-5.354l-328.371-149.776c-21.818-10.704-43.638-10.704-65.469 0l-328.641 149.645c-8.199 4.010-15.003 9.36-23.177 13.37v12.035h-0.147z" />
<glyph unicode="&#xe913;" glyph-name="instagram" data-tags="instagram" d="M512 864c-112.979 0-127.146-0.479-171.517-2.503-44.278-2.020-74.518-9.052-100.98-19.335-27.356-10.631-50.555-24.856-73.682-47.982s-37.351-46.328-47.982-73.684c-10.284-26.46-17.316-56.701-19.337-100.979-2.024-44.371-2.503-58.538-2.503-171.517s0.479-127.146 2.503-171.517c2.021-44.278 9.053-74.518 19.337-100.979 10.631-27.357 24.855-50.554 47.982-73.683 23.128-23.126 46.327-37.35 73.682-47.981 26.461-10.285 56.702-17.318 100.98-19.338 44.371-2.022 58.538-2.502 171.517-2.502s127.146 0.48 171.517 2.502c44.278 2.019 74.518 9.053 100.979 19.338 27.357 10.63 50.554 24.854 73.683 47.981 23.126 23.13 37.35 46.326 47.981 73.683 10.285 26.461 17.318 56.701 19.338 100.979 2.022 44.371 2.502 58.538 2.502 171.517s-0.48 127.146-2.502 171.517c-2.019 44.278-9.053 74.518-19.338 100.979-10.63 27.356-24.854 50.557-47.981 73.684-23.13 23.126-46.326 37.351-73.683 47.982-26.461 10.283-56.701 17.316-100.979 19.335-44.371 2.024-58.538 2.503-171.517 2.503zM512 789.045c111.075 0 124.234-0.424 168.099-2.426 40.56-1.85 62.586-8.627 77.245-14.324 19.418-7.547 33.277-16.561 47.834-31.117 14.557-14.558 23.571-28.416 31.117-47.834 5.699-14.659 12.477-36.686 14.326-77.246 2-43.866 2.426-57.024 2.426-168.099s-0.426-124.234-2.426-168.099c-1.85-40.56-8.627-62.586-14.326-77.245-7.546-19.418-16.56-33.277-31.117-47.834s-28.416-23.571-47.834-31.117c-14.659-5.699-36.685-12.477-77.245-14.323-43.859-2.003-57.014-2.429-168.099-2.429s-124.24 0.426-168.099 2.429c-40.56 1.846-62.587 8.624-77.246 14.323-19.418 7.546-33.276 16.56-47.832 31.117s-23.572 28.416-31.119 47.834c-5.697 14.659-12.473 36.685-14.324 77.245-2.002 43.866-2.425 57.024-2.425 168.099s0.424 124.234 2.425 168.099c1.851 40.56 8.627 62.587 14.324 77.246 7.547 19.418 16.562 33.276 31.118 47.832 14.557 14.558 28.415 23.572 47.833 31.119 14.659 5.697 36.686 12.474 77.246 14.324 43.866 2.001 57.024 2.426 168.099 2.426zM512 309.334c-76.582 0-138.666 62.083-138.666 138.666 0 76.586 62.083 138.666 138.666 138.666 76.586 0 138.666-62.080 138.666-138.666 0-76.582-62.080-138.666-138.666-138.666zM512 661.622c-117.981 0-213.621-95.641-213.621-213.622s95.64-213.622 213.621-213.622c117.981 0 213.622 95.642 213.622 213.622s-95.642 213.622-213.622 213.622zM783.984 670.061c0-27.57-22.352-49.921-49.923-49.921-27.568 0-49.917 22.35-49.917 49.921s22.349 49.921 49.917 49.921c27.571 0 49.923-22.35 49.923-49.921z" />
<glyph unicode="&#xe914;" glyph-name="tiktok" data-tags="tiktok" d="M804.573 832h-585.144c-50.414 0-91.428-41.015-91.428-91.428v-585.144c0-50.413 41.015-91.427 91.428-91.427h585.144c50.413 0 91.427 41.014 91.427 91.427v585.144c0 50.414-41.014 91.428-91.427 91.428zM731.539 496.95c-4.195-0.406-8.403-0.621-12.618-0.64-22.749-0.003-45.142 5.658-65.155 16.474s-37.018 26.448-49.478 45.478v-210.963c0-30.838-9.146-60.982-26.278-86.624s-41.485-45.626-69.974-57.427c-28.493-11.802-59.843-14.89-90.090-8.874-30.243 6.016-58.029 20.867-79.834 42.672-21.806 21.808-36.656 49.59-42.673 79.834-6.016 30.246-2.928 61.597 8.873 90.090 11.801 28.49 31.787 52.842 57.428 69.974s55.786 26.278 86.624 26.278c3.254 0 6.438-0.291 9.638-0.493v-76.838c-3.2 0.384-6.346 0.97-9.638 0.97-21.104 0-41.347-8.384-56.269-23.309-14.925-14.922-23.309-35.165-23.309-56.269 0-21.107 8.384-41.347 23.309-56.272 14.922-14.925 35.165-23.309 56.269-23.309 43.958 0 82.781 34.634 82.781 78.592l0.768 358.291h73.507c3.36-31.94 17.837-61.682 40.906-84.028 23.066-22.346 53.254-35.869 85.286-38.211v-85.395z" />
<glyph unicode="&#xe915;" glyph-name="x" data-tags="x" d="M703.68 768h105.856l-231.264-264.32 272.064-359.68h-213.024l-166.848 218.144-190.912-218.144h-105.92l247.36 282.72-260.992 341.28h218.432l150.816-199.392 174.432 199.392zM666.528 207.36h58.656l-378.624 500.608h-62.944l382.912-500.608z" />
</font>
</defs>
</svg>
